#TITLE:BALLAD FOR YOU;
#SUBTITLE:;
#ARTIST:NM feat. Thomas Howard;
#TITLETRANSLIT:;
#SUBTITLETRANSLIT:;
#ARTISTTRANSLIT:;
#CREDIT:;
#BANNER:BALLAD FOR YOU.png;
#BACKGROUND:BALLAD FOR YOU-bg.png;
#LYRICSPATH:;
#CDTITLE:Beatmania IIDX.png;
#MUSIC:BALLAD FOR YOU.mp3;
#MUSICLENGTH:105.639;
#OFFSET:-2.261;
#SAMPLESTART:31.620;
#SAMPLELENGTH:12.000;
#SELECTABLE:YES;
#DISPLAYBPM:64.000;
#BPMS:0.000=65.330,100.000=65.220,103.000=67.840;
#STOPS:;
#BGCHANGES:3.750=ribbon2.avi=0.75=1=0=0,6.750=ribbon2.avi=0.75=0=1=0,7.750=bubble4.avi=1=0=0=0,11.750=flower1.avi=1=0=0=0,15.750=heart6.avi=1=0=0=0,19.750=flower2.avi=1=0=0=0,23.750=heart8.avi=1=0=0=0,27.750=ribbon2.avi=0.75=0=1=0,30.750=ribbon2.avi=0.75=0=1=0,31.750=flower1.avi=1=0=1=0,35.750=bubble4.avi=1=0=1=0,39.750=heart6.avi=1=0=1=0,43.750=ribbon2.avi=0.75=0=1=0,46.750=ribbon2.avi=0.75=0=1=0,47.750=heart8.avi=1=0=1=0,55.750=flower2.avi=1=0=1=0,59.750=bubble4.avi=1=0=1=0,63.750=heart6.avi=1=0=1=0,67.750=flower1.avi=1=0=1=0,71.750=ribbon2.avi=0.75=0=1=0,74.750=ribbon2.avi=0.75=0=1=0,75.750=heart8.avi=1=0=1=0,79.750=bubble4.avi=1=0=1=0,83.750=flower2.avi=1=0=1=0,87.750=heart8.avi=1=0=1=0,91.750=flower1.avi=1=0=1=0,95.750=heart6.avi=1=0=1=0,99.750=heart8.avi=1=0=1=0,104.750=ballad for you-bg.png;

//---------------dance-single - BASIC----------------
#NOTES:
     dance-single:
     BASIC:
     easy:
     2:
     0.154,0.213,0.000,0.095,0.114: // measure 1
0000
0000
0000
0000
,  // measure 2
0000
1000
0000
1000
,  // measure 3
0000
0001
0001
0001
,  // measure 4
1000
1000
0100
0100
,  // measure 5
0000
0010
0000
0001
,  // measure 6
0000
1000
0000
0100
,  // measure 7
0010
0001
1000
0100
,  // measure 8
2000
3000
0002
0003
,  // measure 9
1000
0000
0000
0000
0000
1000
1000
0000
0000
0010
0000
0000
,  // measure 10
0100
0000
0000
0000
0000
0100
0100
0000
0000
0001
0000
0000
,  // measure 11
0010
0010
0100
0100
,  // measure 12
1000
1000
0001
0001
,  // measure 13
0100
0000
0100
0100
0000
0000
0010
0000
0010
0010
0000
0000
,  // measure 14
2000
0002
3000
0003
,  // measure 15
1000
0010
0100
0001
,  // measure 16
0000
0001
0001
0000
1000
1000
0010
0000
0000
0100
0000
0000
,  // measure 17
0001
1000
0001
0000
,  // measure 18
0010
0100
0010
0000
,  // measure 19
0001
0001
0001
1000
1000
1000
0001
0000
0000
1000
0000
0000
,  // measure 20
0010
0010
0010
0100
0100
0100
0010
0000
0000
0100
0000
0000
,  // measure 21
0001
0001
1000
1000
,  // measure 22
2000
3200
0320
0032
,  // measure 23
0013
0010
0010
0010
,  // measure 24
0000
0001
0001
0000
0100
0100
0000
0010
0010
0000
1000
1000
,  // measure 25
1000
0010
2000
3100
,  // measure 26
0020
0001
0001
0130
,  // measure 27
0000
0000
0010
0000
,;

//---------------dance-single - ANOTHER----------------
#NOTES:
     dance-single:
     ANOTHER:
     medium:
     5:
     0.223,0.263,0.019,0.066,0.336: // measure 1
0000
0000
0000
0000
,  // measure 2
1000
0100
0000
1000
,  // measure 3
0002
0023
0230
2300
,  // measure 4
3001
1000
0100
0010
,  // measure 5
0001
0000
0000
0000
0000
0010
0010
0000
0000
0000
0000
0000
,  // measure 6
1000
0000
0000
0000
0000
0100
0100
0000
0000
0000
0000
0000
,  // measure 7
0010
0010
0010
0001
0000
0000
1000
0000
0000
0100
0000
0000
,  // measure 8
0020
0000
0001
0031
,  // measure 9
0001
0001
0001
0001
0000
0000
0100
0100
0100
0100
0000
0000
,  // measure 10
0001
0001
0001
0010
0010
0010
0100
0000
0000
1000
0000
0000
,  // measure 11
0011
0001
0001
0001
0000
0000
1100
0100
0100
0100
0000
0000
,  // measure 12
0010
1000
1000
0000
1000
1000
0100
0000
0000
0100
0000
0000
,  // measure 13
0001
0001
0001
0001
0000
0000
0010
0010
0010
0010
0000
0000
,  // measure 14
0100
0100
0100
1000
1000
1000
0100
0000
0000
0010
0000
0000
,  // measure 15
0000
0001
0001
0000
0100
0100
0000
0010
0010
0000
1000
1000
,  // measure 16
0010
0000
0000
0000
1000
1000
0000
0000
0000
0100
0000
0000
,  // measure 17
0002
1000
0010
0003
,  // measure 18
2000
0100
0001
3000
,  // measure 19
1000
1000
1000
0001
0001
0001
1000
1000
1000
0001
0001
0001
,  // measure 20
0010
0010
0010
0100
0100
0100
0010
0000
0000
0100
0000
0000
,  // measure 21
1000
0000
1000
1000
0000
0000
0001
0000
0001
0001
0000
0000
,  // measure 22
0001
0000
0100
0100
0000
0010
0010
0000
1000
1000
0000
0001
,  // measure 23
0001
0001
0001
0100
0100
0100
0010
0000
0000
1000
0000
0000
,  // measure 24
0001
0010
0010
0001
0000
0000
0001
0010
0010
0001
0000
1000
,  // measure 25
0100
1000
1000
1000
0000
0000
0010
0001
0001
0001
0000
0000
,  // measure 26
0100
0000
0000
0000
0001
0001
0001
0000
0000
0001
0000
0000
,  // measure 27
0000
0000
0010
0000
,;

//---------------dance-single - MANIAC----------------
#NOTES:
     dance-single:
     MANIAC:
     hard:
     7:
     0.288,0.314,0.000,0.057,0.549: // measure 1
0000
0000
0000
0000
,  // measure 2
0002
0100
0100
0103
,  // measure 3
0001
0000
0100
0100
0000
0000
1000
0000
0010
0010
0000
0000
,  // measure 4
0100
0010
0010
1000
0100
0100
0010
0000
0000
0100
0000
0000
,  // measure 5
1000
0000
0000
1000
0001
0001
0100
0000
0000
0000
0010
0000
,  // measure 6
1000
0000
1000
0000
1000
0000
0100
0000
0100
0000
0100
0000
,  // measure 7
1000
0000
1000
0001
0000
0001
1000
0000
1000
0001
0000
0001
,  // measure 8
1000
0000
0000
0010
0000
0010
0010
0000
0000
0100
0100
0100
,  // measure 9
0010
0010
0010
0100
0100
0100
0010
0010
0010
0100
0100
0100
,  // measure 10
1000
1000
1000
1000
0000
0000
0001
0001
0001
0001
0000
0000
,  // measure 11
0010
0000
0001
0010
0000
0000
0100
0000
1000
0100
0000
0000
,  // measure 12
0010
0001
0001
0001
1000
1000
1000
0100
0100
0100
0010
0010
,  // measure 13
1000
1000
1000
1000
0000
0010
0100
0100
0100
0100
0000
0001
,  // measure 14
1000
1000
1000
0010
0010
0010
0100
0100
0100
0001
0001
0001
,  // measure 15
0010
0000
0100
0100
0000
1000
1000
0000
0001
0001
0000
0000
,  // measure 16
0010
0000
0000
0000
0000
0100
0100
0000
0100
0100
0100
0100
,  // measure 17
0001
2000
3002
0003
,  // measure 18
0020
0230
0320
0030
,  // measure 19
0001
0001
0001
1000
1000
1000
0010
0010
0010
0100
0100
0100
,  // measure 20
0010
1000
1000
1000
0001
0001
0001
0100
0100
0100
0010
0010
,  // measure 21
0001
0001
0001
0001
0010
0010
1000
0100
0100
0010
1000
1000
,  // measure 22
0100
0000
0000
0010
0010
0010
0001
0001
0001
0010
0010
0010
,  // measure 23
0001
0001
0001
0000
0001
0001
1000
0000
0000
0000
1000
1000
,  // measure 24
0010
0010
0010
0000
0010
0010
0100
0000
0000
0010
0000
0000
,  // measure 25
0100
0100
0100
0100
0001
0001
0001
1000
1000
0100
0001
0001
,  // measure 26
0001
0000
0000
0000
0010
0010
0100
0000
0100
0010
0010
0010
,  // measure 27
0000
0000
0010
0000
,;

//---------------dance-double - BASIC----------------
#NOTES:
     dance-double:
     BASIC:
     easy:
     2:
     0.154,0.213,0.009,0.104,0.085: // measure 1
00000000
00000000
00000000
00000000
,  // measure 2
00000000
10000000
00000000
01000000
,  // measure 3
00100000
00001000
00010000
00000010
,  // measure 4
00001000
00001000
00000001
00000001
,  // measure 5
00000000
00000010
00000000
00000100
,  // measure 6
00000000
00010000
00000000
00001000
,  // measure 7
00100000
00010000
00100000
01000000
,  // measure 8
20000000
30000000
00020000
00030000
,  // measure 9
01000000
00000000
00000000
00000000
00000000
01000000
01000000
00000000
00000000
00001000
00000000
00000000
,  // measure 10
00010000
00000000
00000000
00000000
00000000
00010000
00010000
00000000
00000000
00000010
00000000
00000000
,  // measure 11
00001000
00001000
00000100
00000100
,  // measure 12
00000010
00000010
00000001
00000001
,  // measure 13
00000100
00000000
00000100
00000100
00000000
00000000
00000010
00000000
00000010
00000010
00000000
00000000
,  // measure 14
00002000
00003000
00000002
00000003
,  // measure 15
00000100
00000010
00001000
00000010
,  // measure 16
00000000
00001000
00001000
00000000
00000001
00000001
00000010
00000000
00000000
00000100
00000000
00000000
,  // measure 17
00010000
00001000
00010000
00000000
,  // measure 18
00001000
00010000
00000100
00000000
,  // measure 19
00000010
00000010
00000010
00000100
00000100
00000100
00010000
00000000
00000000
00001000
00000000
00000000
,  // measure 20
00010000
00010000
00010000
00001000
00001000
00001000
00000000
00000000
00000000
01010000
00000000
00000000
,  // measure 21
00010000
00010000
10000000
10000000
,  // measure 22
20000000
30200000
02300000
03020000
,  // measure 23
00130000
00001000
00010000
00001000
,  // measure 24
00010000
00000000
00010000
00001000
00000000
00001000
00010000
00000000
00000000
00000100
00000000
00000000
,  // measure 25
00000020
00000031
00002000
00003100
,  // measure 26
00000020
00000001
00000001
00000130
,  // measure 27
00000000
00000000
00000010
00000000
,;

//---------------dance-double - ANOTHER----------------
#NOTES:
     dance-double:
     ANOTHER:
     medium:
     5:
     0.222,0.251,0.019,0.066,0.331: // measure 1
00000000
00000000
00000000
00000000
,  // measure 2
00000100
00010000
00000000
00001000
,  // measure 3
02000000
03020000
20030000
30200000
,  // measure 4
01300000
00010000
00100000
00001000
,  // measure 5
00010000
00000000
00000000
00000000
00000000
00001000
00001000
00000000
00000000
00000000
00000000
00000000
,  // measure 6
00000010
00000000
00000000
00000000
00000000
00001000
00001000
00000000
00000000
00000000
00000000
00000000
,  // measure 7
00000100
00000100
00000100
00010000
00000000
00000000
00001000
00000000
00000000
00100000
00000000
00000000
,  // measure 8
00020000
00000000
10000000
01030000
,  // measure 9
00100000
00100000
00100000
00100000
00000000
00000000
10000000
10000000
10000000
10000000
00000000
00000000
,  // measure 10
00010000
00010000
00010000
00100000
00100000
00100000
00001000
00000000
00000000
01000000
00000000
00000000
,  // measure 11
00110000
00010000
00010000
00010000
00000000
00000000
11000000
01000000
01000000
01000000
00000000
00000000
,  // measure 12
00100000
00010000
00010000
00000000
00010000
00010000
01000000
00000000
00000000
01000000
00000000
00000000
,  // measure 13
10000000
10000000
10000000
10000000
00000000
00000000
00010000
00010000
00010000
00010000
00000000
00000000
,  // measure 14
00100000
00100000
00100000
01000000
01000000
01000000
10000000
00000000
00000000
00010000
00000000
00000000
,  // measure 15
00000000
01000000
01000000
00000000
00100000
00100000
00000000
10000000
10000000
00000000
00010000
00010000
,  // measure 16
01000000
00000000
00100000
00010000
,  // measure 17
00002000
00010000
00010000
00003000
,  // measure 18
00000200
00001000
00000010
00000300
,  // measure 19
00000010
00000010
00000010
00001000
00001000
00001000
00000001
00000001
00000001
00000100
00000100
00000100
,  // measure 20
00000010
00000010
00000010
00000100
00000100
00000100
00000010
00000000
00000000
00000100
00000000
00000000
,  // measure 21
00000000
00000001
00000000
00000000
00000001
00000000
00000001
00000000
00000000
00000000
00000000
00000000
00001000
00000000
00000000
00000000
00001000
00000000
00001000
00000000
00000000
00000000
00000000
00000000
,  // measure 22
00000010
00000000
00000100
00000100
00000000
00000001
00000001
00000000
00001000
00001000
00000000
00000010
,  // measure 23
00000010
00000010
00000010
00000100
00000100
00000100
00000001
00000000
00000000
00001000
00000000
00000000
,  // measure 24
00000010
00000100
00000100
00000010
00000000
00000000
00000010
00000100
00000100
00000010
00000000
00010000
,  // measure 25
00001000
00010000
00010000
00010000
00000000
00000000
00000100
00001000
00001000
00001000
00000000
00000000
,  // measure 26
00001000
00000000
00000000
00000000
00000001
00000001
00000001
00000000
00000000
00000001
00000000
00000000
,  // measure 27
00000000
00000000
00000010
00000000
,;

//---------------dance-double - MANIAC----------------
#NOTES:
     dance-double:
     MANIAC:
     hard:
     7:
     0.289,0.314,0.000,0.057,0.549: // measure 1
00000000
00000000
00000000
00000000
,  // measure 2
02000000
00100000
10000000
03100000
,  // measure 3
00001000
00000000
00010000
00010000
00000000
00000000
00001000
00000000
00010000
00010000
00000000
00000000
,  // measure 4
00000100
00000010
00000010
00000001
00000100
00000100
00000010
00000000
00000000
00001000
00000000
00000000
,  // measure 5
00000001
00000000
00000000
00000001
00000100
00000100
00000010
00000000
00000000
00000100
00000010
00000000
,  // measure 6
00010000
00000000
00001000
00000000
00001000
00000000
00100000
00000000
00010000
00000000
00010000
00000000
,  // measure 7
10000000
00000000
10000000
00100000
00000000
00100000
01000000
00000000
01000000
00010000
00000000
00010000
,  // measure 8
10000000
00000000
00000000
01000000
00000000
01000000
01000000
00000000
00000000
01000000
01000000
01000000
,  // measure 9
00100000
00100000
00100000
00010000
00010000
00010000
00100000
00100000
00100000
01000000
01000000
01000000
,  // measure 10
10000000
10000000
10000000
10000000
00000000
00000000
00010000
00010000
00010000
00010000
00000000
00000000
,  // measure 11
00100000
00000000
00010000
00100000
00000000
00000000
01000000
00000000
10000000
01000000
00000000
00000000
,  // measure 12
00100000
00010000
00010000
00010000
10000000
10000000
10000000
01000000
01000000
01000000
00100000
00100000
,  // measure 13
00100000
00100000
00100000
00100000
00000000
00001000
00010000
00010000
00010000
00010000
00000000
00000010
,  // measure 14
00001000
00001000
00001000
00000001
00000001
00000001
00000010
00000010
00000010
00000100
00000100
00000100
,  // measure 15
00010000
00000000
00001000
00001000
00000000
00010000
00010000
00000000
00001000
00001000
00000000
00000000
,  // measure 16
00100000
00000000
00000000
00000000
00000000
00010000
00010000
00000000
00010000
00010000
00010000
00010000
,  // measure 17
00010000
02000000
03002000
00003000
,  // measure 18
00020000
00030200
00000320
00000030
,  // measure 19
00000001
00000001
00000001
00001000
00001000
00001000
00000100
00000100
00000100
00000010
00000010
00000010
,  // measure 20
00000010
00000001
00000001
00000001
00001000
00001000
00001000
00000100
00000100
00000100
00000010
00000010
,  // measure 21
00001000
00001000
00001000
00001000
00000010
00000010
00000001
00000100
00000100
00000010
00000001
00000001
,  // measure 22
00000100
00000000
00000000
00000010
00000010
00000010
00001000
00001000
00001000
00000010
00000010
00000010
,  // measure 23
00001000
00001000
00001000
00000000
00001000
00001000
00000001
00000000
00000000
00000000
00000001
00000001
,  // measure 24
00000010
00000010
00000010
00000000
00000010
00000010
00000100
00000000
00000000
00010000
00000000
00000000
,  // measure 25
00001000
00001000
00001000
00001000
00010000
00010000
00001000
00010000
00010000
00100000
00010000
00010000
,  // measure 26
00010000
00000000
00000000
00000000
10000000
10000000
01000000
00000000
01000000
00100000
00100000
00100000
,  // measure 27
00000000
00000000
00100000
00000000
,;
