#CDTITLE:.\CDTITLES\DANCE DANCE REVOLUTION HOME VERSION.PNG;
#TITLE:Funk Boogie;
#ARTIST:Funk Kid feat. KOOL BOYS.;
#BPM:127.1;
#DISPLAYBPM:127;
#GAP:5723;
#SAMPLESTART:37.81;
#BACKGROUND: A:MOVIE:.\Movies\Random\ring8.avi STARTAT:0.0 LAYER:0; B:MOVIE:.\Movies\Random\water2.avi STARTAT:0.0 LAYER:0; C:MOVIE:.\Movies\Random\cube2a.avi STARTAT:0.0 LAYER:0; D:MOVIE:.\Movies\Random\cube2r.avi STARTAT:0.0 LAYER:0; E:MOVIE:.\Movies\Random\wheel6.avi STARTAT:0.0 LAYER:0; F:MOVIE:.\Movies\Random\jazz1.avi STARTAT:0.0 LAYER:0; G:MOVIE:.\Movies\Random\jazz1r.avi STARTAT:0.0 LAYER:0; H:MOVIE:.\Movies\Random\roulette1.avi STARTAT:0.0 LAYER:0; I:MOVIE:.\Movies\Random\darts1.avi STARTAT:0.0 LAYER:0; J:MOVIE:.\Movies\Random\fan1.avi STARTAT:0.0 LAYER:0; K:MOVIE:.\Movies\Random\cube8.avi STARTAT:0.0 LAYER:0; SCRIPT: 0.......A...............B...............A...............B...............C.......D.......E...............C.......D.......E...............F.......G.......H...I...H...I...F.......G.......H...I...H...I...J...............................C.......D.......B...............C.......D.......B...............K...............E...............K...............E...............0; #END;
#SINGLE:BEGINNER:1:000000008000800020002000600000004000000020006000600040006000400040002000808080002020200060004000404040002020200080002000606060606000202000000000400060002000808080000000B0000000A000B000600020004040400080000000000000008000000000000000600020004040400040002000606060004000600080808000600040002020200000600040404040400040006000A000A000400060606060600060004000A000A0A;
#SINGLE:BASIC:4:0000000080008000200020006!606000004!4040000020006000600040006!606040004!4040200080608000204020006!6060400080404060202020008!80802!2020604060602!202060208!80804020606040402!202080804!400040201000B0003000B0006!60006020606040208!80808!8080402020602!20204!4040604000B08040B00060406!60304020B000402020604!40406!6060804080608!80802!202040206080404060602!20206040806060406!60608!808040B060004020602020A08!808040604020602;
#SINGLE:ANOTHER:5:000000006!60606000200020004!40404000200020006060600020002000404040002000200080000000204020602000000020602040202020008!80802!202060406040200000A0B0004020606040406000602040406060B0006000A00080006!600060206060402000000000000000002!20204!4040604000B08040B00060406!60304020B000402020604!40406!6060804080608!80802!202040206080404060602!20206040806060406!60608!808040B060004020602020A08!808040604020602;
#SINGLE:MANIAC:6:000000008!80806420604086264!406020706!6080403040608420802068204!40406!606080406824!46!60B000B084628!80A046406!603084060824804060B080B020B080604246!620B0882060A040108!80946!60B080620624206010304060428046208420806040706!60B68!80A046406!60306428626864628!80A060804020064068204!40B0482002604620606!60B!40108!806040902!204060108!80A02!20A06820428084626020264!40201086208420604068246020404084626420808064206!60B!4078406(02);
#DOUBLE:BASIC:3:000000006000000040000000800000002000604020000000600000000000000000000000000000000000000000000000000000006060600000006000602040406!600060B000200020008040200060006000600000000000000000000000000000000000600000000000000000004!4000400000002000202080004020600000000060000000000000000000000000000000000000000000600000600060008040406060202000808040402020606:0000000000000000000000000000000000000000000000000000000040000000202020B00060004000202020008000600020400000000000400000000000000000000000000000000000000000000000000040002!201000008!8090000060604040602040004!4000004000000000000000000000000000000000000000000040004000408020004040600060604000800020002020800040000000004000000000000000000000000000000000000040802040802080B;
#DOUBLE:ANOTHER:5:0000000000000000000000000000000000602460A0608020B02080406820408060000000000000000000000000000000006024602020200064208620B020828000000600000000000000000000000000006080204!406020106!60402030806000000000000000000000000000006!6000006080804640A06040402060060000000000000000000000000000000680404060608080246000B0282060802040602042600000000000000000000000602040802064206:000000006!600000604!400000406060202040000000000000000000000000000000048060108020642080604620804060804000000000000000000000000000000000000040A060462080406020208046404000000000000000000000000000208060604820B!B00000B0202080404!400000400000000000000000000040408060604040608280604080206840400000000000000000000000000000000000000000004040802060402080602040000000000000000420642;
#DOUBLE:MANIAC:6:000000000000000000000000000000608040682040408260404064604080600000000000000000000060002084208620804060208!80702!2030824086000000000000000000000000000000624060608020408026408!802020A0264026000000000000000000000000000000606000624040828428601!40602010806048600000000000000000000060204680204040606824608026000000000000000000602046208428642060060000000000000684282!204!400000108(02):000000006060802040408020608040000000000000000000000000000000004086201030808026802000400000000000000000000000000000000040A060A04!46!600B0082060604040624000000000000000000000000000000000004042608080248264803!3000003084200400000000000000000000000000000000004080604060608240624000000000000000000000000000402060824820686240000000000000000000402860408260804;
