#CDTITLE:.\CDTITLES\DANCE DANCE REVOLUTION HOME VERSION.PNG;
#TITLE:MAXIMIZER;
#ARTIST:CLI-MAX S.;
#BPM:190;
#DISPLAYBPM:190;
#GAP:2584;
#FREEZE:32=632,288=316,536=632;
#SAMPLESTART:18.36;
#BACKGROUND: A:FILE:.\Anim\tunnel1f.png LAYER:0; B:MOVIE:.\Movies\Random\tunnel11.avi STARTAT:0.0 LAYER:0; C:MOVIE:.\Movies\Random\maximizer1.avi STARTAT:0.0 LAYER:0; D:MOVIE:.\Movies\Random\maximizer2.avi STARTAT:0.0 LAYER:0; E:MOVIE:.\Movies\Random\maximizer3.avi STARTAT:0.0 LAYER:0; F:MOVIE:.\Movies\Random\maximizer4.avi STARTAT:0.0 LAYER:0; G:MOVIE:.\Movies\Random\maximizer5.avi STARTAT:0.0 LAYER:0; H:MOVIE:.\Movies\Random\maximizer6.avi STARTAT:0.0 LAYER:0; I:MOVIE:.\Movies\Random\maximizer7.avi STARTAT:0.0 LAYER:0; J:MOVIE:.\Movies\Random\chase5.avi STARTAT:0.0 LAYER:0; K:MOVIE:.\Movies\Random\maximizer8.avi STARTAT:0.0 LAYER:0; L:MOVIE:.\Movies\Random\maximizer9.avi STARTAT:0.0 LAYER:0; M:MOVIE:.\Movies\Random\maximizer10.avi STARTAT:0.0 LAYER:0; N:MOVIE:.\Movies\Random\maximizer11.avi STARTAT:0.0 LAYER:0; O:MOVIE:.\Movies\Random\maximizer12.avi STARTAT:0.0 LAYER:0; P:MOVIE:.\Movies\Random\maximizer13.avi STARTAT:0.0 LAYER:0; Q:MOVIE:.\Movies\Random\maximizer14.avi STARTAT:0.0 LAYER:0; R:MOVIE:.\Movies\Random\maximizer15.avi STARTAT:0.0 LAYER:0; S:FILE:.\Anim\circle1f.png LAYER:0; T:MOVIE:.\Movies\Random\maximizer16.avi STARTAT:0.0 LAYER:0; U:MOVIE:.\Movies\Random\kaleidoscope11.avi STARTAT:0.0 LAYER:0; V:MOVIE:.\Movies\Random\maximizer17.avi STARTAT:0.0 LAYER:0; W:MOVIE:.\Movies\Random\maximizer18.avi STARTAT:0.0 LAYER:0; X:MOVIE:.\Movies\Random\maximizer19.avi STARTAT:0.0 LAYER:0; Y:MOVIE:.\Movies\Random\maximizer20.avi STARTAT:0.0 LAYER:0; Z:MOVIE:.\Movies\Random\maximizer22.avi STARTAT:0.0 LAYER:0; 1:MOVIE:.\Movies\Random\maximizer21.avi STARTAT:0.0 LAYER:0; 2:MOVIE:.\Movies\Random\maximizer23.avi STARTAT:0.0 LAYER:0; 3:MOVIE:.\Movies\Random\maximizer24.avi STARTAT:0.0 LAYER:0; 4:MOVIE:.\Movies\Random\maximizer25.avi STARTAT:0.0 LAYER:0; 5:MOVIE:.\Movies\Random\maximizer26.avi STARTAT:0.0 LAYER:0; SCRIPT: 0...............A.B..............C...............D...............E...............F...............G...............H...............I...............J.....K.......L...............M...............N...............O.......................P...............Q...............R.....S.R..T...............U...............V.......................W.......X...............Y.............N...............E.............Z...............E...............1.......2...............3...............U...............4...............Q...............5...............U...............5.......1.......0; #END;
#SINGLE:BEGINNER:2:0000000000000000000000006060600000000000404040000000000080808000400060002020200000004040404040000000000060606000000000008080800060004000202020000040008000400060002000400060004000200060004000800060006000404040006000800060004000200060004000600020004000600080004000400060600080000000000000002000000000000000B0000000B0000000B000A000B0B0B0B0000000006060606000000000202020000000004040404000000000606060000000002020202000000000404040400000B0B0006060606000200040404040400020008080808080002020202020202000A0A0004040404000200060606060600020008080808080002020202020202000808000B;
#SINGLE:BASIC:6:000000000000000040006060200020204!40406!6060406040006000404080006060800020008020A0008!808040002!2020600040006000802060004000606040006000204060004!40406!6060B00000008!808040202!202060206040604!4000B0206!6000B0208!8080B!B0B02!2020406!60B00020402000604060008060800080800B0000200A0000800A!A0000A0000000B000606060004040400080002000804060002020200080808000402060406020B0004!404020008!80802000606040408040406!60302!203040006000604060408080206!600030004!400010008!800000802!200000200000802060604040202060604040206040602080808040202020602060604040600400604!401020606!6030204060404020604060204!402010806!602030406!6040B!40607060204020A;
#SINGLE:ANOTHER:7:0000000000000000A08080864040626020202820424060006020402060204640602040806020B00020404!404020806!6060464062608080A00060606460202082604040464068642000B060804602080462080206820603000406026804020482060406820406042!202408026806060824080604620604008003000040010000800A!A0000000000A0B000B02060204040626040204020606048408080408020206020602040206820B0006!606020204!40408080400060608040602!202060608!80804040800060604060206!60000000B!400000001!200000008!80000000A0006040460208!8070202046406040802!203040B!B0B060602040602064602020206200B0070820806060802046402060208040206!6030404060608040246060404060202048200B;
#SINGLE:MANIAC:8:0000000000000000B0406080204082646020802060208464606040802040826428640604060682406040(6262)604060(4848)40402080204020864640406080206082462646090B0B0B0A0B!BB404084602060428060608240206046404084602060428060608620206048!80902082606020842080604620804024100300B08007002080828!82!200000000A0B000808060602020404080606482602028284020864280808482846284286040B0606062020808080642101042426262606068080202020648707084848686809!600080B02!200080403!60000060000000080000301082804620648026802460424064204620842082406260242048408680B!B0B3!303A0464842482682824286824648282686284242864846282648268246284828682800B;
#DOUBLE:BASIC:5:00000000000000006000006000000000000000000000000000600060006020400060602080808000B00020002060000060000000000000000000000000000060600080002020606040000000200060000000000060600000000000000000000000000000000000000060006000204060008000200080808000004040606000408060000000000000000000000000000000000000600000008000202020006060600040404080600060000000000000000000600020404060004000200060600000000000000000000000000000000000000000000000000000000000000000000060606080802020604020206060000000000000000000000000000000000000000000006060808020204040606080204060404020206:0000000000000000404000000040206000400060006020400000000000000000000000000000000000000000000040400000400080602020800040006080400000000000000000000000000000000040400040000000408060006000200020202000400040004040000000000000000000000000000000000000000000000000000040408060B00080000000200000004000000000000000000000000000000000000000000000404000200080006020400000000000000000000000000000400080006060606!60000000000000004!40600000000000008!8000007020206060202040000000000000000000000000004040802040406060B00200B0A08020206060802040400000000000000000000000000000000000000040806!6000B;
#DOUBLE:ANOTHER:7:0000000000000000606040206000000000000000000080204060464080206080006000000000000000000000000000603080604080206820204080600000000000000000000000000000000000000062040406820406086202084206000000000000000606024!40460802480606000000000000000600A0060004200300482!200000000000000020006060606000000000006020406060606420600000000000000000000000606020904802060408060000000000000000000000000000006080204060808082!28!80000000000000A0B!B000000000000B08!8000000806000000000000000000000000006062406060402060000000000000000000000000000000000068206040808020206820408060000000000000000000802068200B:00000000000000000000000000402060802040602040000000000000000000004000208060608280B08028206080400000000000000000000000000040806040408020606048080808080201060204000000000000000000000000000402680204062400000000000000000000042608020462040400000000000000000000000000000000004!4004000000002080602040000000000000000000404260806064208062801000400000000000000000408060604020202820406802020204000000000000000000000000000000000000000000000004!40000004004020606080808240406060204000000000000000004042606080280B08200B082040608040400000000000000000000000000040806046406080204;
#DOUBLE:MANIAC:8:00000000000000000000000000000000000060204060828060408060000000000000000000600620B080282060408!80A0B0408600000000000000006080406280600000000000000006000282060408260402060600000000000000000802680204086000000000000000000000086404080684060828640A!A00A0B0080000600000000000000000000000000000602046408020600000000000000000000000000000000000006060308204040682482640200A0B08246820480600000000000000000000000000000000000000006!600000000000060A0462842824060482064208620060000000000000000006240826082408264820B08600000000000000000600282064208420862082408600006000000000000602682482!2003:0000000000000000B02080602020846020400000000000000000000040806420806040602400400000000000000000000000004080604820608040000000000000408060284628401004000000000000000000400208064802068204000000000000040808086!60B802064802040000000000000000000000000000004000400A!A002060606060A!2000A0406020400000000000000040802064!46!600004B8!82!200008382024802030102040000000000000000000000000000000000000040808086280400301008282!26!6000000000000034!40000000000000400000000000000000000000000040208640826082406240000000000000000000000000480B28064208620804000000000000000000000004084004260642862404;
//#SINGLE:MISSION
MODE
#100:1:000000000000000000070B010B02686460820B030B02482080460A0A0B06284280640A01090246204020(8282)806020(8282)80608601030706424080460A0B0A06468240640A0301092420040602480604026802060824080B06040602480604026802060824080B046!60620608420804026402060428020602A00B024630090268A004082608040428B0008!80404060A!206060403!6080B!40207!8060A!20A0B0008264B0008246B488226690B0A0A04!40B202!20806082642101!4002020606426!60B202!20804080162303!6002020404624!407A0A!80407!4020B82A0A!2004040606018800000000446424606646264044826260668242404!40B(28)4!40B(82)4!407(26)4!401(86)2!20A(46)8!80A(46)400A00B0886868242242428644828264668282461248264632682468482462864284682400B;
