#CDTITLE:.\CDTITLES\DANCE DANCE REVOLUTION HOME VERSION.PNG;
#TITLE:Move Your Feet;
#ARTIST:Junior Senior;
#BPM:118.84;
#DISPLAYBPM:118;
#GAP:12;
#SAMPLESTART:54.52;
#BACKGROUND: A:MOVIE:.\Movies\Random\myf1.avi STARTAT:0.0 LAYER:0; B:MOVIE:.\Movies\Random\myf2.avi STARTAT:0.0 LAYER:0; C:MOVIE:.\Movies\Random\myf3.avi STARTAT:0.0 LAYER:0; D:MOVIE:.\Movies\Random\myf4.avi STARTAT:0.0 LAYER:0; E:MOVIE:.\Movies\Random\myf5.avi STARTAT:0.0 LAYER:0; F:MOVIE:.\Movies\Random\myf6.avi STARTAT:0.0 LAYER:0; G:MOVIE:.\Movies\Random\myf7.avi STARTAT:0.0 LAYER:0; H:MOVIE:.\Movies\Random\myf8.avi STARTAT:0.0 LAYER:0; I:MOVIE:.\Movies\Random\myf9.avi STARTAT:0.0 LAYER:0; J:MOVIE:.\Movies\Random\myf10.avi STARTAT:0.0 LAYER:0; SCRIPT: 0.......A............................B...............................C.............................D..........................E.....................F.............................G........................H.............................I...........................J...................................0; #END;
#SINGLE:BEGINNER:1:000000000000000080000000400000008000000020000000800000006000000080000000200040002000600040006000B000B00080002000A000A00060004000B000B00080002000A000A0004040400020202000808080006060600020008080800020202000404040404040400000004000000080000000200000008000000060000000800000002000600020004000200060002000404;
#SINGLE:BASIC:3:00000000000000006060600040404020602040208000202040404000606060204020602080002000600040604!40408!8080200020206!60604!4040800080206!60608!8080200020204!40406!60608000802040404020606060408080802060804020600060B0200020A0400040B06040604060606000404040206020402080002020404020006060602040206080808020206060404020208080606040B;
#SINGLE:ANOTHER:5:0000000000000000601064208020B0204020646040406060403046208020B02060204640B060702030604060B0042!202040206080B0042!202080602040B0042!202060204080B0042!2020804020604440B02088807020666040B0602084206010682080A028204030482060406040601064208020B0204020646040406060403046208020B02060204640B06070201060A0607020B020108020B;
#SINGLE:MANIAC:7:00000000000000006(620802020604)64(420802020406)46(620802020604)6804!40106!60B(420802020406)46(620802020604)64(420802020406)480B020B080601030B0842!20286!60B0B240B0842!20286!60B01030B0862!20284!40B0B260B0842!20286!6030406024246(82)0862628(46)0826264(82)046828684680904(62)0820A02(84)0240106(46)0090A010B06(620802020604)64(420802020406)46(620802020604)6804!40106!60B(420802020406)46(620802020604)64(420802020406)480B020B080601030B080A060204060B;
#DOUBLE:BASIC:3:000000000000000060606060004040404000400020006000600000000000000000000000000000000000000000000000000000006060600080004060B06060004040404040002000600060006000000000000000000000000000000000000000600060608000808020806040B06060600040404040004000200060006:000000000000000000000000000000000000000000000000404040400080808080002000B040B040B0404060B060600020004040000000000000000000000000000000000000000000400040404040408000800020202020B00040604000404000000000000000000000000000000000000000000000000000000000404040400080808080002000B060B060B060B060B040B040B040B;
#DOUBLE:ANOTHER:5:000000000000000060604040404060604020600000000000000000000000000060608080B020B020A060A0B0A020404080600000000000000000000000000000000060808080202060802040B0208280606060600000000000000000000000000000000000606060609070B064604040464060604020606000000000000000000000000060608080B020B020900060606:000000000000000000000000000000000000004020604080404060606060404000000000000000000000000000000000000040808080202040802060A0206060804000000000000000000000000000000000040020202820462080B08220201082202030100004004000000000000000000000000000000042608020464060606460404000000000000000000040400020401080A040B06;
#DOUBLE:MANIAC:7:000000000000000000000000000062464640646042600000000000000000624646406460A060A040900060000000000000000006000620246060A06410260000000000000006006020642020B666646066604440A64086600000000000066088A002A024100664(64)0A060000000000000000684644440666042600000000000000006846444446660A00060006000806010809020B0806:00000000000000006460464062400000000000000000426064604640624000000000000000000000004040A0B064606460606240404000000000000000004042606068282020400400000000000000000000000000000040A64666641000400000000000000000000040A0B0666044406840000000000000000426466660444068400000000000000040402020404000000000000000404;
