#CDTITLE:.\CDTITLES\DANCE DANCE REVOLUTION HOME VERSION.PNG;
#TITLE:Music (Bostik Radio Edit);
#ARTIST:Darude;
#BPM:138;
#DISPLAYBPM:138;
#GAP:1529;
#SAMPLESTART:63.78;
#BACKGROUND: A:MOVIE:.\Movies\Random\grid1.avi STARTAT:0.0 LAYER:0; B:MOVIE:.\Movies\Random\ring2.avi STARTAT:0.0 LAYER:0; C:MOVIE:.\Movies\Random\tunnel9.avi STARTAT:0.0 LAYER:0; D:MOVIE:.\Movies\Random\text16.avi STARTAT:0.0 LAYER:0; E:MOVIE:.\Movies\Random\ring9.avi STARTAT:0.0 LAYER:0; F:MOVIE:.\Movies\Random\Tunnel10.avi STARTAT:0.0 LAYER:0; G:MOVIE:.\Movies\Random\snow4.avi STARTAT:0.0 LAYER:0; SCRIPT: 0...............................A...............................B...............................C...............................D...............E...............A...............E...............F.............................G.F.............G.F.............G.B.............G.B.............G.D...............E...............A...............E...............D...............E...............A...............C...............0; #END;
#SINGLE:BEGINNER:1:000000000000008000000000000000008000200060606000800020004040400060006000400040008000000020000000600040006060000080002000606060008000200040404000600000004000400080008000600060002000200040000000600000002000800020006000400020006000200040002000600020004000400060006000400000006000400020006000400080002000606060008000200040404000600060004000400080000000200000006000400060600000800020006060600080002000404040006000200040008000B;
#SINGLE:BASIC:4:00000000000000004!40B02060204020604!40B02000808020206!60B02040206020408!808020802!202040204!404060406!606080608!808020802!202060206!60604!40408!808080B080604020602040208!80802!202080806040602000A0408000A060204020602000A0808020008!80702!202060002000408060204!404020606!6060204040002000606040206!606000004!4040000020802000A!A000A00080406020402060208!80802!202080804060402000A0608000A040206020406040B0806040206!60B04!40108!80802!202080806040602000A0408000A06020402060408020A!A00(0A);
#SINGLE:ANOTHER:6:00000000000000006!6020B020608040206!6000B020802020804!4020B0204080602064606!603082808!80A0402060208080B02046404!401082808!80A060204020808060A0806042802040682042806820402060804!4020B0106!6020B0304!40106!6090406046208!807!40B020626042408!80A02!20A06!6000B0A0402062206820804062602!20A04!406070A04640002062800040602048206040A!A0A0804062802060482062804820602040806!6020B0304!4020B0106!60304!407060406482806!60B2802!2010682042806820402060804!4020B0106!6020B03046206480804082808!800(02!2)0000000A;
#SINGLE:MANIAC:8:0000000000000000(64)08(04)024046206420(46)08(06)026064204620(46)08(06)0260642046208!8(04)040(02)020(04)040(02)020(06)060(02)020(06)060(02)828(06)026(04)029(0B)031(0B)017(0B)013(0B)0362842862(64)0864620(64)0864620(64)0864620(64)0864620(62)0826480(62)0826480(46)0826424(46)0846424628!80724!40B26!60B24!40728!80A64!40724!40B230628!807242626!60B240628!80928!80928!80744062606262424!40B260428!80728!80728!809660(46)0846420(46)0846420(46)0846420(46)0846420(42)0824680(42)0824680(64)0824626(64)0864626(46)0246480(64)0864620(64)0864620(64)0864620(62)0826480(62)0826480(46)0826424(46)0846424(6!64)08(04!4)0000000000B;
#DOUBLE:BASIC:2:00000000000000006060600040004000404040002000200060606000000000006!60000060000000000000000000000000000000000000000000000000000000000000000000006000000060008000200080800000404000006060000080808080B!B00000B04000000060000000000000000000000000000000000000000000000000000000006000800020002020406040B0006000400040002000200060006000000000000000000000000000000000000000000000000000000000006080400040004000600060008000800020202020B:00000000000000000000000000000000000000000000000000000000400040004!400000404000000080000000200000006000000040000000600000008!80000080800020004000000040000000000000000000000000000000000000000000000000000000000000000000000040000000B0000080002000400060008000200020A00000400000000000000000000000000000000000000000000000000000000040404000808080006060600040404000802080006040600060204;
#DOUBLE:ANOTHER:6:00000000000000004640404060004000282020206000000000000000000000000000000000000000000000006!600000608!800000804!400000406!6000000020202030106080803040808030000000000000000000000000000620B0208280642080601!100000102000000060000000000000000000000000000000000000000000000000006040A0608640A040608024606060106020207020606060000000000000000000000000000060902048403040801028204060484020600000000000000000000000000000060060208280642086842:0000000000000000000000000000000000000000000040008280808060004640B!B00000B02!200000204!400000000000004000000000000000000000000000000000000000000000000000408020B02082803040282090204000000000000000000000000000000000000000000040000000A0408020B0202080B0408060A0204640A0400000000000000000000000000000000000000000000040208080B020828030402820908040000000000000000000000000000000000084802060828020B0A0402820902040404;
#DOUBLE:MANIAC:7:0000000000000000(46)08(04)0240806000000000000000608040(62)08(04)0680204080206(04)044(02)022(06)066000000000000000000000006(08)024(06)026(04)028(06)048(02)06628428600000000000000000(06)0802040(64)0802020B08(02)0640900(06)0000000000000000000000000000606060606!600000008080809030804640A0608280106048408600000000000000000000000000000000606246(46)0802860(48)0206420600000000000000000000000006060608062409024628428(64)0282040(26)0060000000000000000000000000060(06)006246064608280648606:00000000000000000000000000004080(64)08(02)06804000000000000000000000000000000000000(04)044(08)088(06)066(04)044(08)082(06)040000000000000000000000000000(48)0206040(82)060408040000000000000000000000000400240902(04)0610864826821!100000400000002040404040000000000000000000000000000000000040426070206460A040828030406860840000000000000000000000(04)0206460(46)0208280B02820601004000040000000000000000000000000404080(64)0828080(46)0828060(46)04624004040000000000000000040482!2000002;
