#CDTITLE:.\CDTITLES\DANCE DANCE REVOLUTION HOME VERSION.PNG;
#TITLE:Planet Rock (Swordfish Radio Edit);
#ARTIST:Paul Oakenfold vs. Afrika Bambaata and the Soul Sonic Force;
#BPM:126.81;
#DISPLAYBPM:126;
#GAP:85;
#SAMPLESTART:22.78;
#BACKGROUND: A:MOVIE:.\Movies\Random\snow4.avi STARTAT:0.0 LAYER:0; B:MOVIE:.\Movies\Random\colors1.avi STARTAT:0.0 LAYER:0; C:MOVIE:.\Movies\Random\wheel7.avi STARTAT:0.0 LAYER:0; D:MOVIE:.\Movies\Random\cube2a.avi STARTAT:0.0 LAYER:0; E:MOVIE:.\Movies\Random\cube2r.avi STARTAT:0.0 LAYER:0; F:MOVIE:.\Movies\Random\water2.avi STARTAT:0.0 LAYER:0; G:MOVIE:.\Movies\Random\grid1.avi STARTAT:0.0 LAYER:0; H:MOVIE:.\Movies\Random\ring2.avi STARTAT:0.0 LAYER:0; I:MOVIE:.\Movies\Random\ring4.avi STARTAT:0.0 LAYER:0; SCRIPT: 0...............................A.......................B.B.B.B.C...............B...............C...............B...............D.......E.......F...............D.......E.......F...............D.......E.......G...............D.......E.......A...............H...............A...............H...............A...............H...............A...............H.......I.......C...............................0; #END;
#SINGLE:BEGINNER:1:000000000000000000000000000000004000000060000000200000008000000040400000606000002020000080800000404040006060600020202000808080006060002000404000404000800060600000600040008000B000000000000000004040008000606000606000200040400000400060008000B0B0006000200060002000600020004000800040002000600080004000200060008000400080006000200040002000400080006000800040002000000080000000606000004000400020200000800080004040000060006;
#SINGLE:BASIC:3:00000000000000000000000000000000A000000080004000606020004040606040200080A0000000808060004040200060200080A00000008080400060602000602!203000404!40B020600040008060402080808000400060B02000800060004000402!201000606!60B020400060008040602080808000600040B06!600030008!800070006!60604!40408!8000A0006!600000604!400000406000800020004000808!80A00040604000606080804020608040402!202060804!40402!200000208020A000606060002000600040404000600020004060200020002;
#SINGLE:ANOTHER:5:0000000000000000000000000000000040208620806!60B02048204!40B060304010B0208420804!40B02068206!60B080804060B0208620806!60B02048204!40B080802!2020B00060208420B020406260208!807020804!40B03020862060904!400010006!60209020A00040208620B02060B048208!8090208060B020008420407060704!40702!20308260100080306!603042803!60308!80704!40B02!20208!800040A0602040206!60606020804!40106046408!8020902!20A0204!40102!20A0606!60B!40102!200000208020B000606048206060401040406820404060304060202;
#SINGLE:MANIAC:7:00000000000000000000000000000000B0306200480280A040706206B090A010B0104200680288A068904208646!62B0A0B0306200480288A048706208464!42B0A068682020B0264820A060A04!40B!60B0842048482080609098208!802066902!206080A048482020B0246820A040A06!64!460B086206868A08040707820A!20346!60364!407068244!40807!80A82!20326!60B4828!80782620408428606!60B826404!40B2648!80202!20A6864!40B!603880A068868!809!60B!401!20A628482640304820A!A00000A0620B0000626!6090A0482060A0424!4070A0682040A064608028A!A000A;
#DOUBLE:BASIC:2:000000000000000000000000000000006000600060406000400040604!40000040B00020006060000000000000000000000000000000006000608040004!40000040B000200020002020200060000000000000000000000000000000000000000000B0002000200060606000000000000000000000000000000000000000000060006000200040004000B!B00000B08!800000806!60000060000000000000000000000000000000000000000000000000000000006!60000060006060006000606080008080A0002020200040404000606060004:00000000000000000000000000000000000000000000000000000000000000000000000000004000408060006!60000060B000200040400000000000000000000000000000000000000000000040404000A0006000404040B000000000000000000000000000000000000040004!40008070B000202020008080B00020004000000000000000000000000000000000000000000000004!400000408!800000806!600000604!400000408!800000802!200000204!400000400000000040004;
#DOUBLE:ANOTHER:5:000000000000000000000000000000004!406060B06!604040B04!406060B0A06060000000000000000000000062404!40202010A040646080806040206000000000000000000000000000006060204040406060308280868060486000000000000000000000006060624040464080206!60002030B06060000000000000000000000000006!600000608!80000080B04060608080202040408080606000000000000000000000000000000000000000000000000020002!20006020B!B00000B0A0400020206:0000000000000000000000000000000000000000000000000000000000004020A06046408080406020400000000000000000000000000000000042606!602020307028202420406024000000000000000000000000000000004!400000408!80000080B068404000000000000000000000000000000040404260B0A!A00000A04!400000400000000000000000000000000000000000000000000040408!800020802!200040204!400060406!600020602!200040204!40000040000000000000000000000000000000404080008060006040B000600020002;
#DOUBLE:MANIAC:7:00000000000000000000000000000000000000000000000000000000000000607!40108620862080409!60308428B08060000000000000000000006024682!20404010B08280204626408602840486000000000000000000000000000000006!60000060B082802046208460282064860000000000000000000000000000000000006!600000608!80002!20804!4010B0640426000000000000000060680264B!B0408!80602!20804!40208!80406!608000600000000000006062046820846824820B!B00B0A04640408600000000000000000000006002808040006:000000000000000000000000000000009!60308420842080607!40108628B0A0400000000000000000000000000000000040A!201068206820403040000000000000000000000000000000000000004086282046464040646460A04!40000000000000400000000000000000000000004!4080807064606460824628A0B!B0408!80602!208000204!40000040000000000000000040480246B0460624000000000000000000000000000000004!40008!8070B046068400000000000000000000000000000000004040801086208046202040204;
