#CDTITLE:.\CDTITLES\DANCE DANCE REVOLUTION HOME VERSION.PNG;
#TITLE:Simply Being Loved 'Somnambulist';
#ARTIST:BT;
#BPM:136;
#DISPLAYBPM:135;
#GAP:60;
#CHANGEBPM:416=129.6,432=136;
#SAMPLESTART:48.50;
#BACKGROUND: A:MOVIE:.\Movies\Random\wheel7.avi STARTAT:0.0 LAYER:0; B:MOVIE:.\Movies\Random\star3.avi STARTAT:0.0 LAYER:0; C:MOVIE:.\Movies\Random\ring6.avi STARTAT:0.0 LAYER:0; D:MOVIE:.\Movies\Random\text17.avi STARTAT:0.0 LAYER:0; E:MOVIE:.\Movies\Random\highway2r.avi STARTAT:0.0 LAYER:0; F:MOVIE:.\Movies\Random\lady13.avi STARTAT:0.0 LAYER:0; G:MOVIE:.\Movies\Random\ring9.avi STARTAT:0.0 LAYER:0; H:MOVIE:.\Movies\Random\rain2.avi STARTAT:0.0 LAYER:0; SCRIPT: 0...............A.......B.......A...............C.......D.......A...............C...............B...............A...............C...............A...............B...............A...............D.......A.......C.......B.......E.......F.......E...C...A.......E...F...C.......A...............C...............G...............E.......C.......A.......B.......C...............B...............A...............C...............G...............H.......F.......C..C.......0; #END;
#SINGLE:BEGINNER:1:0000000000000000000000000000000000600060004000400060006000400040000000000000B0B0000000000000B0B000400060004000600040404000606060000000000000A0A0000000000000A0A00080002000800020008080800020202020000000400000002000000060000000B0B0000080002000A0A0000060004000B0B00000808080808000B000B00060004000B000B00040006000B000B00080002000A000A00060004000600040008000200000002000000060600000404000002020000080800000B0000000A0000000B00080008000808080008000800080808;
#SINGLE:BASIC:4:00000000000000006060200020202020600060204000208020006000400000006!60606000200080202!20202000600040604!404040002000802040006000B!B0B000004!40404000200080202!20202000400060406!6060600020008020600040002!2000A000600060006000000040002000202020204!40404020600020204!40404020600060204!404040206000402080004!4040B0000000A00080002000404060002000400020208!80808000200080208!800000802!2000002060002000400020006!606020008!80804000606040406!606020008!800080002!2000200060606000404020006!600060004!400040008000A!A000000A;
#SINGLE:ANOTHER:6:00000000000000004!4046!60060662288406!606080208!80A0402060804020B000002068604010602042604!407040842!2020406086206010404!40B06!60B00080006020406048406030402062406!609060862!202060408420403062604640B0008!80007!4040B02060204080624080802!20003!6006662288406!60003!20A4208068208!80A06040646080204!40001!20A6208048206!60B02!20A0A!A00000A0406460208!8080202060408280602040802000B!B0B040206080604!407!8000A!202020802!20206!60604!40402!2020806000602040206048206420404!40B!60308!80A060204020682040404020602060802!20204!40406!60602!2020800A!A0000000A;
#SINGLE:MANIAC:7:00000000000000007!400B!60090[608060806080208020]80A!A0A020A04!40B0462820A!A0A0A0B!B000B0B0682!20A2404!407084826062808420206646202!203820482026406!6030428!809!60B!40B420482!20A2606!609086824042808620204464202!20182068202464B00000008!80802!20206!60304!40706!609028202!2010408!8(08)[408040804080208020]80442!20A6284!4020B4286!6020B!4001!2000080A0662!20A4286!6020B6208!80762!2030644882208!80402!20A0208082646!603!20A!807!40B!6090822464608!80924!400060106!60003!2000A!800070646!6002!260A04!407088462!2026!60096204024682!208000A08!809062848!8072!200A0402088642!208080A08!809026482!2038!80080828046208!8002!20000000A;
#DOUBLE:BASIC:3:000000000000000000000000000000006!600000600000000000000000000000000000000000000000000000000000000060006000800020202!200000206060606060006000400040404000200060006060000000000000000000000000000000000000000000000000000060006!60006000600000006000606080008000800020604000400040002060000060006!600000606000000000000000000000000000000000000000000000006!600000608!80000080B0000000000020600000000000000000000000000000006080000000000020202!20000000000060306!600000000000006000006!600000006:00000000000000000000000000000000000000004!400000408!800000802!2000002060004000600060606000200040004040000000000000000000000000000000000000000000000000000000000000000040004000800020202!20208!80804!40000040B00060006000202040000000000000004000400000000000000000000000000000000000000000004!400000400000404040004000800020202000400040006060600080002000404000000000000000000000000000000000400000000000806020000000000040000000000000000000000000000000000000000000000040404!4000004;
#DOUBLE:ANOTHER:6:0000000000000000000000000000000000000000000000000006!600606!6000006006202040A!A0A0468202802020B!B0B08282064086000000000000000000000000000000000000000000000000006!606068280460284020806!60600000000000006820B!B0B02!20006!603080402!20006!60306!60000060000000000000000000606!6090804068601!40B03!60B04020606000000000000000000000000000000000000000006!606062464!40408!80802!202084826!600040642!20000020202060600000000000000000000000000000000000000006000000006!60006624!46!60000040000038402!200000206!600066006!6000006:000000000000000000000000000000006!6004!400608!840280624!400000404!40000040000000000000000000000000000000000000004080204!40106!60304!40106!6020203004808060A!A0A06428086040404!4040000000000000000000408!80A02!2030640000000000000000000000000000004000404082807!80A0A!203082801!202040000000000000000000000004082020B!B0B02!20208080B!B0B02!20208!808042403!30304!4040000000000000000000000000000000000000000000000000408064826!600000604!400072842!200000208!800092404!4000004000004000000000000000000000000000000040400004!4000000004;
#DOUBLE:MANIAC:7:0000000000000000000000000000000000000000000000000000060068!8000(08)00B680246420006000000000000000000000000682680024826!6080809006000000000000000000062404606820B!B0B082460480600000000000000000000000000000000000000000684!40006!60B0828428601!40B03!60B01060000000000000000000609!80701!40B0A0408600000000000000000000006!60009!800020A82!20004!40208!80708(42)464!40008!80406!608060000000000000000000000000002!202084286!6008!800602!20A0486000000000000000000006!600002!20304682!24!400000000010600000000000000006842!2008!800000000A:000000000000000000000000000000006824!402408268!802824624!4004000000000000000000000042606404820B!B0B0826406204000000000000000000040282480B480264680004000000000000000000000000482480026824!40808!80703!3020B828B!6000400040003400000000000000000000000000000048607!80A03!60901060840000000000000000482!2020B!B0608!807026284!400000400000000000000000000000000000000000004862!28!8000A04!46!6000000B02!2004!400200040000000000000000000042!2006!600208!809024624!40000040000000000000000000000486!62!2000000000304;
