#CDTITLE:.\CDTITLES\DANCE DANCE REVOLUTION HOME VERSION.PNG;
#TITLE:WAITING FOR TONIGHT;
#ARTIST:P.A.T;
#BPM:125;
#DISPLAYBPM:125;
#GAP:61;
#SAMPLESTART:45.07;
#BACKGROUND: A:MOVIE:.\Movies\Random\text15.avi STARTAT:0.0 LAYER:0; B:MOVIE:.\Movies\Random\snow4.avi STARTAT:0.0 LAYER:0; C:MOVIE:.\Movies\Random\light5.avi STARTAT:0.0 LAYER:0; D:MOVIE:.\Movies\Random\ring4.avi STARTAT:0.0 LAYER:0; E:MOVIE:.\Movies\Random\kaleidoscope4.avi STARTAT:0.0 LAYER:0; F:MOVIE:.\Movies\Random\lady20.avi STARTAT:0.0 LAYER:0; G:MOVIE:.\Movies\Random\wind2.avi STARTAT:0.0 LAYER:0; H:MOVIE:.\Movies\Random\water1.avi STARTAT:0.0 LAYER:0; SCRIPT: 0...............................................................A...............................................................B...........C.D.B...........................C.D.B.......E.E.F...G...............H...............F.G.............H...............F.G.............H...............F.G.............H...............B.......A.......B.......A.......H.......A.......B.......A.....0; #END;
#SINGLE:BEGINNER:1:00000000000000006000000000000000600020006000200040002000606060600000000040002000404040006000200040404000600020006060600040002000B000000020002000A000000020002000B000000020002000A00000002000000040008000200060008080808080000000600080002000400020202020200000004000800020006000808080808000000060008000200040002020202020000000600000004000000080000000200000004000000060000000800000002;
#SINGLE:BASIC:4:00000000000000000060006000406040B0000000600020004000200080802020606000204020000080602040B000B000404000806020002080402060B020B000B00000206000B000400080008020A000402000604060B00060002000B00060204000408060206020808080802!2020204040206000404080604!406010606!6000B0206000402060206020808080202!2020206040206020404080604!40402!20206!60604060B0004000606060008080000020200000406!600060400020006000A0004060B;
#SINGLE:ANOTHER:5:00000000000000000060004000800020B02060204000604060204020600040008000882060406240686080104!4010B020800088204060426048408030B!B0B04628A0020820106080A04002042060408280A0020820304080A06!6040B!40B0A00044606!6020B02040B080B084206!60B0B0908820406084206460702062604060A!A0A044604!4020B02060B080B086204!40B070A08820604086204640902042406040A!A0A04060B0000000604080208002028060604000100204206080400060060400800028;
#SINGLE:MANIAC:7:00000000000000008!80A08620642!20A628424062624820628046204820868628B0A064608280424686208420862640B064608280424686208420862646B020B0286!6066284!40B062A!80782046482!20386422404!40B4286!60B042A000286!60B846B!B000B0B08(42)40(82)82068628260B420B686282848208(62)60(82)82046202842662846B0682244228(62)60(82)82048428240B620B484282868208(42)40(82)82064202862442864B0482266228!804488206264!401!20A604248206268!80A!201604828206264!401!20A6042068066046B;
#DOUBLE:BASIC:3:00000000000000004000600060004000B000200060000000000000000000000000000000000000002000800040608020B000200020006000000000000000000000000000000000006060606080802000B040404020606000600000000000000000000000000000006060808020004060B040808020206000000000000000000000000000000000006060808020004060B04080802020600000006060006000606!60000000000000600000600020004060400020006000006000006:0000000000000000000000000000000000000000000040002000800060004060B000200020004000000000000000000000000000000000002000800060408020A080808020404000400000000000000000000000000000004040404080008020B060808020204000000000000000000000000000000000004040808020006040B0608080202040000000000000000000000000000000000040400000400040004!400000000000004040000000000000000000000000004000400000008000406;
#DOUBLE:ANOTHER:6:00000000000000000000000000606060606020406060404020600000000000000000000000006!60608!80804!404060802040B0402020606000000000000000000000000000000000000000606060600600208046404040464020600600000000000000000000000000000600602084804620B040802820604020602006000000000000000000000000000600602084804620B04080282060402060200600000000000000000000006000606000008020406040404040206000200000606:0000000000000000606040402000040040000000000000000000208060606460B!B0B02!20204!40400000000000000000000000000000000040408080606040802060B064606060646020400400000040400000000000000000000040404042606420B060802820406020402004000000000000000000000000000400402086806420B060802820406020402004000000000000000000000000000400402086806428606060602040002000004040000000000000000000004000404000008020604;
#DOUBLE:MANIAC:8:00000000000000006060006028286428B6604260260060000000000000060006602062403!20A042600600000000000000602062403!20A0426006000000000000000000000660624!40B03!60B8A!80906!606000000000000660624!40B03!60B8A!80906!606006026062404!46B0206000000000602!200026066062404!46B0206000000000602!200026066068404!46B0806000000000608!800086066068404!46B0806000000000608!800086000000000000006840A0240480860600000000000000006240A08404202606:00000000000000000400400000000000000000000040042042602640684024804!404000000000000040208620842862404!40400000000000004020862084286482A!80763!20104!404000000000000440426!60B0A!80763!20104!40400000000000044!4040204040000000000004264680840400404020400000000000042646808404004040204000000000000486462024040040408040000000000004864620240400404084A0860620240400000000000000004260A026068084040000000000000000426;
