#CDTITLE:.\CDTITLES\DANCE DANCE REVOLUTION HOME VERSION.PNG;
#TITLE:Your Rain(RAGE MIX);
#ARTIST:Akira Yamaoka feat. Mary Elizabeth McGlynn;
#BPM:94;
#DISPLAYBPM:84;
#GAP:1073;
#SAMPLESTART:62.02;
#BACKGROUND: A:MOVIE:.\Movies\Random\yr1.avi STARTAT:0.0 LAYER:0; B:MOVIE:.\Movies\Random\yr2.avi STARTAT:0.0 LAYER:0; C:MOVIE:.\Movies\Random\yr3.avi STARTAT:0.0 LAYER:0; D:MOVIE:.\Movies\Random\yr4.avi STARTAT:0.0 LAYER:0; E:MOVIE:.\Movies\Random\yr5.avi STARTAT:0.0 LAYER:0; F:MOVIE:.\Movies\Random\yr6.avi STARTAT:0.0 LAYER:0; G:MOVIE:.\Movies\Random\yr7.avi STARTAT:0.0 LAYER:0; H:MOVIE:.\Movies\Random\yr8.avi STARTAT:0.0 LAYER:0; I:MOVIE:.\Movies\Random\yr9.avi STARTAT:0.0 LAYER:0; J:MOVIE:.\Movies\Random\yr10.avi STARTAT:0.0 LAYER:0; K:MOVIE:.\Movies\Random\yr11.avi STARTAT:0.0 LAYER:0; SCRIPT:0.A........B...............................C...................D...............................E...............................F.............................G.....................H.......................I........................J..................K.............................0;#END;
#SINGLE:BEGINNER:1:0000000000000000400000006000000060008000400080006000006060006000400080006000800040000040400040008000000060000000200000004000000080000000400000002000000060000000B000000020000000A00000002000000060600000200020004040000080008000404000002000200060600000800080002000200020002;
#SINGLE:BASIC:3:000000000000000040404000606060008000800020002000600000606000606020A0000080A0000040006000400040B06!606060404!40406!6060000080802!200020006!606060404!40406!6060808020208!800080A0B0000080A000004060400060B0000040B060B00080802020A000B00040406060B040B00080802020A000B00060B040A0800080808000A;
#SINGLE:ANOTHER:4:0000000000000000606600A00444062!20A0426040604280642068004060B040208063000040630006204806402010603064200028609020406020408!802000A0A046200020428020307020302!20808080A0B!BB0000048!8A000000B!BB0200046!6302082!20A0804820604080A046406280604090102020682040608040646042804060BB206460482040B0642;
#SINGLE:MANIAC:6:0000000000000000664606B0462624B0482802606282084060620420604682866824!46!60B0B822!2002B6042062040648284B028626!60B028424!40B82046B4B8602822B028424!40B028626!60B82064B6B848282284060B0028040604480640602080A!A0AAB26284842828627464B482A0B8248230B24286863828428646B682A0B826821096204420682046B;
#DOUBLE:BASIC:2:000000000000000060400000406000006000000000000000000000000000000060600000808000004040000060600000A020200040206000000000000000000000000000000000006020404060606000B000200000000000000000000000000000000000000000006060606060002000B040B0404000200060006:00000000000000000000000000000000404000008080000060600000404000004000000000000000000000000000000000000000000000004020606040404000A020200060204000000000000000000000000000400080008000200060004000B060B06060002000400040000000000000000000000000004040404040408080B!600040004000406;
#DOUBLE:ANOTHER:5:000000000000000060004000608020404642002060600000000000000000000000000000060200008482002068604240B!402020106!6060000000000000000000000000000000606!603046404040802020688002200440088006600000000000000000000000006060600600002060000620B4404020260006002060600000206:0000000000000000000000000000000000000000040200208682002048480020646200004040000000000000000000000000000000404!40106460606080202040B!602020304!40400000000000000000000000000000000000000002200880066004B6606020240004002040400000204000000000000040404004000020400004264!460066006600664;
#DOUBLE:MANIAC:7:000000000000000000000000000000000000006062B606B0483608A024B808A0B416000000000000000000000000000000000060608202444682846460802468B42206020600000000000000000000000000000666038106AA0A43006600000000000000066036006260303072A69210B2B0A4A0306600606060060000000000000066600000666:000000000000000066B604B044B40646463404400000000000000000000000000000000042BB000B68A408A026B808A0B622040204000000000000000000000000000040408202666482864640802648AA0A6100440000000000000444018382B2B0A6A010440040404004000000000000000000044014004240101092A47238221000402210004;
